Archive for March, 2013

Nikita 2013

Nikita 2013

Nikita XXX (NEW 2013 Bluebird Films)

Starring: Gemma Massey, Bobbi Starr, Gracie Glam, Sea J Raw, Anna Lovato , Katie Kox, Diana Doll, Danica Dillon, Madison Fox, Andy San Dimas, Dani Jensen, Derrick Pierce, Billy Glide, Tommy Gunn, Karlo Karrera, Will Powers, Paul Chaplin

“Bluebird Films presents Gemma Massey as she is transformed into a government assassin named Nikita. She’s ready for any assignment that comes her way! Packed with large star-studded cast, gunfire action, five hardcore sexy scenes, three exclusive Glambirds, 5 orgies, girl on girl toy playing and much more! “

     

Download:
http://rapidgator.net/file/6456a5f27e534bd977ba2c089170f504/Nikita_XXX_(2013).part1.rar.html
http://rapidgator.net/file/f7fff8fc5fafcaa0180549a86efd4211/Nikita_XXX_(2013).part2.rar.html
http://rapidgator.net/file/89590188/Nikita_XXX_(2013).part3.rar.html
http://rapidgator.net/file/9767a704d6101c13dbed525ebdae5254/Nikita_XXX_(2013).part4.rar.html
http://rapidgator.net/file/f51c98aead8c052830c2be8dd7d2962f/Nikita_XXX_(2013).part5.rar.html

Mirror:
http://uploaded.net/file/b3ieq8q1/Nikita%20XXX%20%282013%29.part3.rar
http://uploaded.net/file/86g0jakn/Nikita%20XXX%20%282013%29.part5.rar
http://uploaded.net/file/ropnnyoy/Nikita%20XXX%20%282013%29.part4.rar
http://uploaded.net/file/ap4xmdc2/Nikita%20XXX%20%282013%29.part1.rar
http://uploaded.net/file/t5v8l3p2/Nikita%20XXX%20%282013%29.part2.rar

Mirror:
http://luckyshare.net/7706110084/Nikita XXX (2013).part4.rar
http://luckyshare.net/2241781322/Nikita XXX (2013).part1.rar
http://luckyshare.net/8364611165/Nikita XXX (2013).part5.rar
http://luckyshare.net/7944726225/Nikita XXX (2013).part3.rar
http://luckyshare.net/7636058702/Nikita XXX (2013).part2.rar

Tags: , , , , , , , , , ,

Ejaculation management the school

Ejaculation management the school

Ejaculation management the school govern su ru Big Breasts female teachers

Cast: –
Yamato Directed by:
Series: –
Manufacturer: SOSORU
Label: SOSORU
Busty Gal Female Teacher Job Planning Category:
H_746ssr002: No.
Format: AVI
Size: 1.16 GB

Download:
http://rapidgator.net/file/0cfdb22706b66f684dbbaf88d58b964b/0325-ssr002.part1.rar.html
http://rapidgator.net/file/20e62d29cf38dc33f2809621e127af5b/0325-ssr002.part2.rar.html
http://rapidgator.net/file/e4040ec554e13e3c60686991aa1611f4/0325-ssr002.part3.rar.html

Mirror:
http://uploaded.net/file/upqbxmex/0325-ssr002.part2.rar
http://uploaded.net/file/1lszlyb7/0325-ssr002.part1.rar
http://uploaded.net/file/wxtkrxvf/0325-ssr002.part3.rar

Mirror:
http://luckyshare.net/4971553203/0325-ssr002.part3.rar
http://luckyshare.net/8100964866/0325-ssr002.part1.rar
http://luckyshare.net/1709818110/0325-ssr002.part2.rar

Tags: , , , , , , , , , ,

Prost Du Geile Sau

Prost Du Geile Sau

File: Prost_Du_Geile_Sau.avi
Size: 733769728 bytes (699.78 MiB), duration: 01:29:29, avg.bitrate: 1093 kb/s
Audio: mp3, 48000 Hz, stereo, 112 kb/s
Video: mpeg4, yuv420p, 512×384, 25.00 fps(r)
step: 315 s; # tiles: 4×4, tile size: 256×192; total size: 1024×835

Download:
http://rapidgator.net/file/1177ac962e3655e9efaed33ad8e1aa3a/Prost_Du_Geile_Sau.part1.rar.html
http://rapidgator.net/file/89589094/Prost_Du_Geile_Sau.part2.rar.html

Mirror:
http://uploaded.net/file/4ibyq4ly/Prost_Du_Geile_Sau.part1.rar
http://uploaded.net/file/5ow2h6u5/Prost_Du_Geile_Sau.part2.rar

Mirror:
http://luckyshare.net/4186389426/Prost_Du_Geile_Sau.part1.rar
http://luckyshare.net/2825867143/Prost_Du_Geile_Sau.part2.rar

Tags: , , , , , , , , , ,

Buttwoman Vs Slutwoman DVDRip

Buttwoman Vs Slutwoman DVDRip

Video
Format : MPEG-4 Visual
Format profile : Streaming Video@L1
Format settings, BVOP : Yes
Format settings, QPel : No
Format settings, GMC : No warppoints
Format settings, Matrix : Default
Codec ID : XVID
Codec ID/Hint : XviD
Duration : 1h 9mn
Bit rate : 1 258 Kbps
Width : 512 pixels
Height : 288 pixels
Display aspect ratio : 16/9
Frame rate : 29.970 fps
Resolution : 24 bits
Colorimetry : 4:2:0
Scan type : Progressive
Bits/(Pixel*Frame) : 0.285
Stream size : 630 MiB (90%)
Writing library : XviD 1.1.2 (UTC 2006-11-01)

Audio
Format : MPEG Audio
Format version : Version 1
Format profile : Layer 3
Codec ID : 55
Codec ID/Hint : MP3
Duration : 1h 9mn
Bit rate mode : Variable
Bit rate : 125 Kbps
Channel(s) : 2 channels
Sampling rate : 48.0 KHz
Resolution : 16 bits
Stream size : 62.6 MiB (9%)
Alignment : Aligned on interleaves
Interleave, duration : 24 ms (0.72 video frame)
Interleave, preload duration : 470 ms

 

Download:
http://rapidgator.net/file/b51606275df5b78357547b5a0185b437/Buttwoman.Vs.Slutwoman.XXX.DVDRip.XviD.part1.rar.html
http://rapidgator.net/file/dadd6ea09e2e5dd2e4fd0e72a3c0b7df/Buttwoman.Vs.Slutwoman.XXX.DVDRip.XviD.part2.rar.html
http://rapidgator.net/file/9bb3ede01a68eeba4c3e024f0cb98356/Buttwoman.Vs.Slutwoman.XXX.DVDRip.XviD.part3.rar.html
http://rapidgator.net/file/048407dbe1cb3d18880b83421002ed41/Buttwoman.Vs.Slutwoman.XXX.DVDRip.XviD.part4.rar.html

Mirror:
http://uploaded.net/file/xjpter68/Buttwoman.Vs.Slutwoman.XXX.DVDRip.XviD.part3.rar
http://uploaded.net/file/eb40pmht/Buttwoman.Vs.Slutwoman.XXX.DVDRip.XviD.part4.rar
http://uploaded.net/file/dqr7z6qo/Buttwoman.Vs.Slutwoman.XXX.DVDRip.XviD.part1.rar
http://uploaded.net/file/vf419kjs/Buttwoman.Vs.Slutwoman.XXX.DVDRip.XviD.part2.rar

Mirror:
http://luckyshare.net/5172902663/Buttwoman.Vs.Slutwoman.XXX.DVDRip.XviD.part1.rar
http://luckyshare.net/9926033719/Buttwoman.Vs.Slutwoman.XXX.DVDRip.XviD.part4.rar
http://luckyshare.net/2665172068/Buttwoman.Vs.Slutwoman.XXX.DVDRip.XviD.part3.rar
http://luckyshare.net/1798091947/Buttwoman.Vs.Slutwoman.XXX.DVDRip.XviD.part2.rar

Tags: , , , , , , , , , ,

Sneaking and her best friend so as not to Barre 7

Sneaking and her best friend so as not to Barre 7

imagebam.com

fset420 – Sneaking and her best friend so as not to Barre 7
Cast: Haruka Motoyama, Yuria Ashina, Yui Kasuga, Yuu Shinoda
YSK: Director
Her best friend and so as not to Barre Series:
Manufacturer: Akinori
Label: AKNR
Planning Dejimo Genre:
1fset420: No.
Format: AVI
Size: 1.45 GB
File: 0326-fset420/0326-fset420.avi
Size: 1557356455 bytes (1.45 GiB), duration: 02:48:46, avg.bitrate: 1230 kb/s
Audio: aac, 48000 Hz, stereo (eng)
Video: h264, yuv420p, 720×396, 29.97 fps(r) (eng)
step: 595 s; # tiles: 4×4, tile size: 256×140; total size: 1024×627

imagebam.com

http://rapidgator.net/file/208d8b0fd6561a970c96b8e2c6a901d2/0326-fset420.part1.rar.html
http://rapidgator.net/file/1b4fc96583b8a738045a61dc978aec9c/0326-fset420.part2.rar.html
http://rapidgator.net/file/be18c1b22dd4081f75462846a171ff97/0326-fset420.part3.rar.html
http://rapidgator.net/file/18b28a51de710462621c0f30b6a29b91/0326-fset420.part4.rar.html
http://rapidgator.net/file/b097c7445ef24023a7c5c085a5f1be06/0326-fset420.part5.rar.html

Mirror:
http://uploaded.net/file/hxqve7di/0326-fset420.part5.rar
http://uploaded.net/file/h1mvrtxr/0326-fset420.part4.rar
http://uploaded.net/file/9ieg782j/0326-fset420.part3.rar
http://uploaded.net/file/ixhljpaj/0326-fset420.part1.rar
http://uploaded.net/file/7n4rptvv/0326-fset420.part2.rar

Mirror:
http://luckyshare.net/4560263475/0326-fset420.part3.rar
http://luckyshare.net/7975816435/0326-fset420.part5.rar
http://luckyshare.net/6149287582/0326-fset420.part4.rar
http://luckyshare.net/3057144596/0326-fset420.part2.rar
http://luckyshare.net/6906476841/0326-fset420.part1.rar

Tags: , , , , , , , , , ,

Ich Bin Ein Boses Madchen

Ich Bin Ein Boses Madchen

imagebam.com

File: Ich.Bin.Ein.Boeses.Maedchen.avi
Size: 940376064 bytes (896.81 MiB), duration: 01:27:06, avg.bitrate: 1440 kb/s
Audio: mp3, 48000 Hz, stereo, 128 kb/s
Video: mpeg4, yuv420p, 576×432, 25.00 fps(r)

imagebam.com

http://rapidgator.net/file/0a6f87398333b75367ac7d61fec6f0f4/Ich.Bin.Ein.Boeses.Maedchen.part1.rar.html
http://rapidgator.net/file/a3a90ee540512ce7e3f9769dfeb9b34a/Ich.Bin.Ein.Boeses.Maedchen.part2.rar.html
http://rapidgator.net/file/263907a05a7efb861909348c8c9183c3/Ich.Bin.Ein.Boeses.Maedchen.part3.rar.html

Mirror:
http://uploaded.net/file/c5cgzjd7/Ich.Bin.Ein.Boeses.Maedchen.part1.rar
http://uploaded.net/file/463hldup/Ich.Bin.Ein.Boeses.Maedchen.part3.rar
http://uploaded.net/file/ijsa8r5s/Ich.Bin.Ein.Boeses.Maedchen.part2.rar

Mirror:
http://luckyshare.net/1357531305/Ich.Bin.Ein.Boeses.Maedchen.part2.rar
http://luckyshare.net/6494660950/Ich.Bin.Ein.Boeses.Maedchen.part3.rar
http://luckyshare.net/8552955732/Ich.Bin.Ein.Boeses.Maedchen.part1.rar

Tags: , , , , , , , , , ,

She-Hulk XXX A Porn Parody

She-Hulk XXX A Porn Parody

imagebam.com

She-Hulk XXX A Porn Parody XXX WEBRip MP4 720p

She-Hulk XXX: A Porn Parody.XXX.WEBRip.MP4.720p
She’s hot, she’s mean, and…she’s green! Undisputed porn parody king Axel Braun and adult powerhouse Vivid Entertainment finally bring life to one of the most beloved comic book heroines, and who than world-famous former WWE wrestling superstar Chyna to portray her? Sexy, funny, and outrageously entertaining, “She-Hulk XXX: An Axel Braun Parody” is a force to be reckoned with!
Ripped: 2013-03-31 by matt0392
Cast: Chyna, Gracie Glam, Tara Lynn Foxx, Jennifer Dark, Alexis Ford
Resolution: 1280×720

imagebam.comimagebam.comimagebam.comimagebam.comimagebam.com

Download:
Rapidgator.net
http://rapidgator.net/file/eebf4244cb120ceb390613f288d9da3b/She-Hulk_XXX__A_Porn_Parody.XXX.WEBRip.MP4.720p.part1.rar.html
http://rapidgator.net/file/f5ca0a7eb7ffe0f2fda94a3296e19d80/She-Hulk_XXX__A_Porn_Parody.XXX.WEBRip.MP4.720p.part2.rar.html
http://rapidgator.net/file/af29c00b55b473a5ff8187d6381abead/She-Hulk_XXX__A_Porn_Parody.XXX.WEBRip.MP4.720p.part3.rar.html
http://rapidgator.net/file/6571fa5a4ff1932b3373d1c35295284b/She-Hulk_XXX__A_Porn_Parody.XXX.WEBRip.MP4.720p.part4.rar.html
http://rapidgator.net/file/ae64f5287190f667e8ff23393138543c/She-Hulk_XXX__A_Porn_Parody.XXX.WEBRip.MP4.720p.part5.rar.html

http://luckyshare.net/8557269018/She-Hulk XXX_ A Porn Parody.XXX.WEBRip.MP4.720p.part5.rar
http://luckyshare.net/3378167465/She-Hulk XXX_ A Porn Parody.XXX.WEBRip.MP4.720p.part4.rar
http://luckyshare.net/7594168237/She-Hulk XXX_ A Porn Parody.XXX.WEBRip.MP4.720p.part3.rar
http://luckyshare.net/8491141015/She-Hulk XXX_ A Porn Parody.XXX.WEBRip.MP4.720p.part1.rar
http://luckyshare.net/5617993218/She-Hulk XXX_ A Porn Parody.XXX.WEBRip.MP4.720p.part2.rar

uploaded

http://uploaded.net/file/6v91md7y/She-Hulk%20XXX_%20A%20Porn%20Parody.XXX.WEBRip.MP4.720p.part3.rar
http://uploaded.net/file/xpavaaoc/She-Hulk%20XXX_%20A%20Porn%20Parody.XXX.WEBRip.MP4.720p.part5.rar
http://uploaded.net/file/qo5ubt2f/She-Hulk%20XXX_%20A%20Porn%20Parody.XXX.WEBRip.MP4.720p.part1.rar
http://uploaded.net/file/x5dl5m70/She-Hulk%20XXX_%20A%20Porn%20Parody.XXX.WEBRip.MP4.720p.part4.rar
http://uploaded.net/file/y0spv8ve/She-Hulk%20XXX_%20A%20Porn%20Parody.XXX.WEBRip.MP4.720p.part2.rar

Tags: , , , , , , , , , , ,

Chestnuts DVDRip

Chestnuts DVDRip

imagebam.com

Chestnuts XXX DVDRip XviD
Video
Format : MPEG-4 Visual
Format profile : Streaming Video@L1
Format settings, BVOP : Yes
Format settings, QPel : No
Format settings, GMC : No warppoints
Format settings, Matrix : Default
Codec ID : XVID
Codec ID/Hint : XviD
Duration : 1h 9mn
Bit rate : 1 258 Kbps
Width : 512 pixels
Height : 288 pixels
Display aspect ratio : 16/9
Frame rate : 29.970 fps
Resolution : 24 bits
Colorimetry : 4:2:0
Scan type : Progressive
Bits/(Pixel*Frame) : 0.285
Stream size : 630 MiB (90%)
Writing library : XviD 1.1.2 (UTC 2006-11-01)

Audio
Format : MPEG Audio
Format version : Version 1
Format profile : Layer 3
Codec ID : 55
Codec ID/Hint : MP3
Duration : 1h 9mn
Bit rate mode : Variable
Bit rate : 125 Kbps
Channel(s) : 2 channels
Sampling rate : 48.0 KHz
Resolution : 16 bits
Stream size : 62.6 MiB (9%)
Alignment : Aligned on interleaves
Interleave, duration : 24 ms (0.72 video frame)
Interleave, preload duration : 470 ms

imagebam.comimagebam.com

http://rapidgator.net/file/89538260/Chestnuts.XXX.DVDRip.XviD.part1.rar.html
http://rapidgator.net/file/89538262/Chestnuts.XXX.DVDRip.XviD.part2.rar.html
http://rapidgator.net/file/89538272/Chestnuts.XXX.DVDRip.XviD.part3.rar.html
http://rapidgator.net/file/84439c406c24621ec6f057755fba039e/Chestnuts.XXX.DVDRip.XviD.part4.rar.html
http://rapidgator.net/file/379e1603d3a4d2293beea54344470fe8/Chestnuts.XXX.DVDRip.XviD.part5.rar.html

Mirror:
http://uploaded.net/file/fa0t8fw4/Chestnuts.XXX.DVDRip.XviD.part1.rar
http://uploaded.net/file/aw1w5rq8/Chestnuts.XXX.DVDRip.XviD.part5.rar
http://uploaded.net/file/zatc2aqh/Chestnuts.XXX.DVDRip.XviD.part4.rar
http://uploaded.net/file/msmpd1re/Chestnuts.XXX.DVDRip.XviD.part3.rar
http://uploaded.net/file/vq3k0kcy/Chestnuts.XXX.DVDRip.XviD.part2.rar

Mirror:
http://luckyshare.net/4068999486/Chestnuts.XXX.DVDRip.XviD.part1.rar
http://luckyshare.net/5692473019/Chestnuts.XXX.DVDRip.XviD.part4.rar
http://luckyshare.net/2144785712/Chestnuts.XXX.DVDRip.XviD.part5.rar
http://luckyshare.net/4621710003/Chestnuts.XXX.DVDRip.XviD.part3.rar
http://luckyshare.net/9743432495/Chestnuts.XXX.DVDRip.XviD.part2.rar

Tags: , , , , , , , , , ,

Intercourse during your work always with a smile

Intercourse during your work always with a smile

imagebam.com

rct486 – Intercourse during your work always with a smile

Cast: Ren Ayase, Nana Usami, Yuki Chisato
Swirl Sasaki Director:
Series: –
Manufacturer: ROCKET
Label: ROCKET
Squirting Planning Genre:
1rct486: No.
Format: AVI
Size: 1.11 GB

imagebam.com

Download:
http://rapidgator.net/file/636683a71b72907f2925d8bf4fa06985/0326-rct486.part1.rar.html
http://rapidgator.net/file/ddceae7be7bda7dab076e3b6e454b2b1/0326-rct486.part2.rar.html
http://rapidgator.net/file/0e302ecc5339cfe1d4c13649b9b38ab1/0326-rct486.part3.rar.html
http://rapidgator.net/file/91a9813cea1c19f948415c14feed26f1/0326-rct486.part4.rar.html

Mirror:
http://uploaded.net/file/pc5v74xd/0326-rct486.part2.rar
http://uploaded.net/file/q52vmhyk/0326-rct486.part4.rar
http://uploaded.net/file/yafcp53y/0326-rct486.part3.rar
http://uploaded.net/file/0ic7f1x2/0326-rct486.part1.rar

Mirror:
http://luckyshare.net/1796639135/0326-rct486.part4.rar
http://luckyshare.net/1738989675/0326-rct486.part3.rar
http://luckyshare.net/7539738335/0326-rct486.part2.rar
http://luckyshare.net/9112224249/0326-rct486.part1.rar

Tags: , , , , , , , , , , ,

Fucktory The Parody Italian Style 2013

Fucktory The Parody Italian Style 2013

Fucktory The Parody Italian Style 2013 XXX WEB-DL 540p MP4
XXX.Fucktory.The.Parody.Italian.Style.2013.XXX.WEB-DL.540p.MP4
General
Complete name : XXX.Fucktory.The.Parody.Italian.Style.2013.XXX.WEB-DL.540p.MP4-chkm8te\pk.xxxfutry.sc1.abbie.cat.lyen.parker.540p.mp4
Format : MPEG-4
Format profile : Base Media
Codec ID : isom
File size : 753 MiB
Duration : 53mn 45s
Overall bit rate mode : Variable
Overall bit rate : 1 958 Kbps
Writing application : Lavf52.93.0

Download:
http://rapidgator.net/file/b2970d68b9463b9befbf0c94bbe18114/XXX.Fucktory.The.Parody.Italian.Style.2013.XXX.WEB-DL.540p.MP4-.part2.rar.html
http://rapidgator.net/file/569c1d84c3a5d4fd7742f5c32d36d47c/XXX.Fucktory.The.Parody.Italian.Style.2013.XXX.WEB-DL.540p.MP4-.part1.rar.html
http://rapidgator.net/file/c27d12a5e38fef423f4c7836c995f0bf/XXX.Fucktory.The.Parody.Italian.Style.2013.XXX.WEB-DL.540p.MP4-.part4.rar.html
http://rapidgator.net/file/743ac511496d12362a6c62ed74f64de8/XXX.Fucktory.The.Parody.Italian.Style.2013.XXX.WEB-DL.540p.MP4-.part5.rar.html
http://rapidgator.net/file/13c521b49f64a60714a0bb1b440bb5eb/XXX.Fucktory.The.Parody.Italian.Style.2013.XXX.WEB-DL.540p.MP4-.part3.rar.html

Mirror:
http://uploaded.net/file/5fp7o3df/XXX.Fucktory.The.Parody.Italian.Style.2013.XXX.WEB-DL.540p.MP4-.part3.rar
http://uploaded.net/file/t3zn3h86/XXX.Fucktory.The.Parody.Italian.Style.2013.XXX.WEB-DL.540p.MP4-.part5.rar
http://uploaded.net/file/zcqta0sd/XXX.Fucktory.The.Parody.Italian.Style.2013.XXX.WEB-DL.540p.MP4-.part4.rar
http://uploaded.net/file/yqy34fta/XXX.Fucktory.The.Parody.Italian.Style.2013.XXX.WEB-DL.540p.MP4-.part2.rar
http://uploaded.net/file/d7xs97td/XXX.Fucktory.The.Parody.Italian.Style.2013.XXX.WEB-DL.540p.MP4-.part1.rar

Mirror:
http://luckyshare.net/3710346865/XXX.Fucktory.The.Parody.Italian.Style.2013.XXX.WEB-DL.540p.MP4-.part2.rar
http://luckyshare.net/1100882304/XXX.Fucktory.The.Parody.Italian.Style.2013.XXX.WEB-DL.540p.MP4-.part5.rar
http://luckyshare.net/2456200840/XXX.Fucktory.The.Parody.Italian.Style.2013.XXX.WEB-DL.540p.MP4-.part4.rar
http://luckyshare.net/7578265016/XXX.Fucktory.The.Parody.Italian.Style.2013.XXX.WEB-DL.540p.MP4-.part3.rar
http://luckyshare.net/9821765911/XXX.Fucktory.The.Parody.Italian.Style.2013.XXX.WEB-DL.540p.MP4-.part1.rar

Tags: , , , , , , , , , ,